[英国] [喜剧] [打包] [BT下载][蝴蝶梦魇 Hunderby 第一至二季][全02季打包][英语无字][MKV][1080P][片源] -尽评网,尽评写真,电影下载,字幕下载,尽评天下,新闻热点,
尽评网酷评电影辣评剧集品评美食阔评胜景测评手机鉴评汽车尽评天下字幕下载 最新注册会员:neanderfal  登录 / 注册
[英国] [喜剧] [打包] [BT下载][蝴蝶梦魇 Hunderby 第一至二季][全02季打包][英语无字][MKV][1080P][片源]
全部共0条回复
雪刀浪子     [ 2018-11-10 02:10:12 ]
  昵称:雪刀浪子
等级:  尽评至尊
积分:87315
金币:8

◎译  名 蝴蝶梦魇 

◎片  名 Hunderby 

◎年  代 2012

◎产  地 英国

◎类  别 喜剧

◎语  言 英语

◎上映日期 2012-08-27

◎IMDb评分 7.5/10 from 719 users

◎IMDb链接 http://www.imdb.com/title/tt2375858

◎豆瓣评分 7.8/10 from 323 users

◎豆瓣链接 https://movie.douban.com/subject/14221805/

◎BT之家整理 http://www.btbtt.us/

◎片  长 22分钟

◎导  演 Tony Dow

◎编  剧 Julia Davis / Barunka O'Shaughnessy

◎主  演 Julia Davis

      Alexandra Roach

      Alex MacQueen

      Rufus Jones

      Rosie Cavaliero

      Alexander Armstrong




◎简  介  


  一部背景设置在十九世纪三十年代——狄更斯和哈代笔下那个时代英国的黑色幽默喜剧。主人公海伦娜从沉船事故中逃生,来到岸边一个英国小镇。在那里她爱上了失去妻子的鳏夫埃德蒙,两人很快结婚了。一直过着清教徒式生活的埃德蒙以为自己娶到了一名纯洁的处女,但却不知晓海伦娜背后有着不为人知的黑暗历史。

嫁给埃德蒙之后,海伦娜处处受到女管家桃乐丝(茱莉亚·戴维斯)的监视。这名女管家对死去的第一位女主人公阿拉贝尔有种说不清的过分迷恋,在她眼中,海伦娜处处比不上阿拉贝尔。桃乐丝一边要保守着过去的秘密不被发现,还要处处提防桃乐丝的陷害,并忍受丈夫严厉的责难以及面对一位情敌的出现。

该剧的其他角色还包括弗格蒂医生和他腿脚不便的夫人海丝特、小镇的长舌妇碧蒂莱瑟福特、爱热闹的两口子汤姆和安妮——他们都是埃德蒙德的佣人、当地教堂的约瑟夫神父、哑巴水手格奥夫以及一名知晓海伦娜过去的神秘的驼背人。

Sky评价这部电视剧说,“在这个哥特的小镇中住满了各式各样奇怪的人物——疯子、医生、驼背人、浪子、女佣、老巫婆、以及一只被唤做威尔弗雷德的可爱小狗,本剧处处散发着黑色荒诞的幽默感,这已经成为了茱莉亚·戴维斯标志性的风格。”



Video
ID : 1
Format : AVC
Format/Info : Advanced Video Codec
Format profile : High@L4
Format settings : CABAC / 4 Ref Frames
Format settings, CABAC : Yes
Format settings, ReFrames : 4 frames
Codec ID : V_MPEG4/ISO/AVC
Duration : 48 min 13 s
Bit rate mode : Variable
Bit rate : 11.3 Mb/s
Maximum bit rate : 15.0 Mb/s
Width : 1 920 pixels
Height : 1 080 pixels
Display aspect ratio : 16:9
Frame rate mode : Constant
Frame rate : 25.000 FPS
Color space : YUV
Chroma subsampling : 4:2:0
Bit depth : 8 bits
Scan type : Progressive
Bits/(Pixel*Frame) : 0.218
Stream size : 3.81 GiB (98%)
Writing library : x264 core 148 r2623 d5b2374
Encoding settings : cabac=1 / ref=4 / deblock=1:-1:-1 / analyse=0x3:0x133 / me=umh / subme=9 / psy=1 / psy_rd=1.00:0.15 / mixed_ref=1 / me_range=24 / chroma_me=1 / trellis=2 / 8x8dct=1 / cqm=0 / deadzone=21,11 / fast_pskip=1 / chroma_qp_offset=-3 / threads=34 / lookahead_threads=5 / sliced_threads=0 / nr=150 / decimate=1 / interlaced=0 / bluray_compat=0 / constrained_intra=0 / bframes=8 / b_pyramid=2 / b_adapt=2 / b_bias=0 / direct=3 / weightb=1 / open_gop=0 / weightp=2 / keyint=125 / keyint_min=63 / scenecut=0 / intra_refresh=0 / rc_lookahead=125 / rc=crf / mbtree=1 / crf=18.0 / qcomp=0.60 / qpmin=0 / qpmax=69 / qpstep=4 / vbv_maxrate=15000 / vbv_bufsize=31250 / crf_max=0.0 / nal_hrd=vbr / filler=0 / ip_ratio=1.40 / aq=3:1.00
Default : Yes
Forced : No
Color range : Limited
Color primaries : BT.709
Transfer characteristics : BT.709
Matrix coefficients : BT.709

Audio
ID : 2
Format : E-AC-3
Format/Info : Enhanced AC-3
Commercial name : Dolby Digital Plus
Codec ID : A_EAC3
Duration : 48 min 12 s
Bit rate mode : Constant
Bit rate : 224 kb/s
Channel(s) : 2 channels
Channel layout : L R
Sampling rate : 48.0 kHz
Frame rate : 31.250 FPS (1536 SPF)
Compression mode : Lossy
Stream size : 77.2 MiB (2%)
Language : English
Service kind : Complete Main
Default : Yes
Forced : No







附件下载:


第一季:

/public/editor/file/20181109/20181109180940_76940.torrent


第二季:

/public/editor/file/20181109/20181109181002_89131.torrent

登陆后可以对信息进行评论。我想 注册 / 登陆

0.2612s