[美国] [喜剧] [打包] [BT下载][永远的好朋友 Best Friends Forever 第一季][全06集打包][英语无字][MKV][720P]-尽评网,尽评写真,电影下载,字幕下载,尽评天下,新闻热点,
尽评网酷评电影辣评剧集品评美食阔评胜景测评手机鉴评汽车尽评天下字幕下载 最新注册会员:neanderfal  登录 / 注册
[美国] [喜剧] [打包] [BT下载][永远的好朋友 Best Friends Forever 第一季][全06集打包][英语无字][MKV][720P]
全部共0条回复
雪刀浪子     [ 2018-11-10 02:06:04 ]
  昵称:雪刀浪子
等级:  尽评至尊
积分:87315
金币:8

◎译  名 永远的好朋友 / 死党

◎片  名 Best Friends Forever

◎年  代 2012

◎产  地 美国

◎类  别 喜剧

◎语  言 英语

◎上映日期 2012-04-04

◎IMDb评分 6.4/10 from 1342 users

◎IMDb链接 http://www.imdb.com/title/tt1845887

◎BT之家整理 http://www.btbtt.us/

◎集  数 6

◎导  演 弗莱德·萨维奇 Fred Savage

◎编  剧 Lennon Parham / Jessica St. Clair

◎主  演 泰勒·圣克莱尔 Taylor St. Clair

      Lennon Parham

      亚当·佩里 Adam Pally




◎简  介  


  好朋友应该相互扶持--无论在什么环境下,无论要付出多大代价。是这样么?

Jessica(Jessica St. Clair扮演)提出离婚后,她成了一个无家可归的人,不得不穿越大半个美国去找她最好的朋友--她的死党--Lennon(Lennon Parham扮演)寻求安慰。尴尬的是,Lennon的男友Joe(Adam Pally扮演)刚刚决定搬进她的公寓和她共同生活。Joe把Jessica以前在Lennon家中保留的卧室改造成了一间家庭办公室!

无论如何,Jessica还是留在了Lennon家中。Jessica和Lennon仿佛重新回到了大学时代:「老规矩」,「老传统」,整晚都听Steel Magnolia的歌曲,聊天可以聊到大天亮。被烦得受不了的Joe发现自己在Lennon的生活中成了一个局外人。

当Lennon试图在Jessica和Joe之间寻找平衡点时,Jessica的单身生活因为老朋友Rav(Stephen Schneider扮演)的再次出现而变得复杂起来。很显然Jessica对Rav还有一些不能忘记的感觉。但Jessica已经很久没有恋爱过了,她甚至忘记了该怎么和男人调情……更不用说「单身女孩应该穿得漂亮点」这些事情了


Video
ID : 1
Format : AVC
Format/Info : Advanced Video Codec
Format profile : High@L3.1
Format settings : 2 Ref Frames
Format settings, CABAC : No
Format settings, ReFrames : 2 frames
Codec ID : V_MPEG4/ISO/AVC
Duration : 23 min 9 s
Bit rate : 4 117 kb/s
Width : 1 280 pixels
Height : 720 pixels
Display aspect ratio : 16:9
Frame rate mode : Constant
Frame rate : 23.976 FPS
Color space : YUV
Chroma subsampling : 4:2:0
Bit depth : 8 bits
Scan type : Progressive
Bits/(Pixel*Frame) : 0.186
Stream size : 682 MiB (90%)
Language : English
Default : Yes
Forced : No
Color range : Limited
Color primaries : BT.709
Transfer characteristics : BT.709
Matrix coefficients : BT.709

Audio
ID : 2
Format : AC-3
Format/Info : Audio Coding 3
Commercial name : Dolby Digital
Codec ID : A_AC3
Duration : 23 min 9 s
Bit rate mode : Constant
Bit rate : 384 kb/s
Channel(s) : 6 channels
Channel layout : L R C LFE Ls Rs
Sampling rate : 48.0 kHz
Frame rate : 31.250 FPS (1536 SPF)
Bit depth : 16 bits
Compression mode : Lossy
Stream size : 63.6 MiB (8%)
Language : English
Service kind : Complete Main
Default : Yes
Forced : No










附件下载:

/public/editor/file/20181109/20181109180557_60270.torrent

登陆后可以对信息进行评论。我想 注册 / 登陆

0.2538s