[美国] [奇幻] [打包] [BT下载][怪奇物语 Stranger Things 第二季][全09集打包][英语英字][MKV][2160P][片源] -尽评网,尽评写真,电影下载,字幕下载,尽评天下,新闻热点,
尽评网酷评电影辣评剧集品评美食阔评胜景测评手机鉴评汽车尽评天下字幕下载 最新注册会员:neanderfal  登录 / 注册
[美国] [奇幻] [打包] [BT下载][怪奇物语 Stranger Things 第二季][全09集打包][英语英字][MKV][2160P][片源]
全部共0条回复
雪刀浪子     [ 2018-11-08 01:37:49 ]
  昵称:雪刀浪子
等级:  尽评至尊
积分:87315
金币:8

◎译  名 怪奇物语 第二季

◎片  名 Stranger Things Season 2

◎年  代 2017

◎产  地 美国

◎类  别 剧情/奇幻/恐怖

◎语  言 英语

◎上映日期 2017-10-27(美国)

◎IMDb评分  9.3/10 from 36 users

◎IMDb链接  http://www.imdb.com/title/tt6020684/

◎豆瓣评分 9.5/10 from 211 users

◎豆瓣链接 https://movie.douban.com/subject/26844438/

◎BT之家整理 http://www.btbtt.me/

◎集  数 9

◎片  长 55分钟

◎导  演 马特·达菲 Matt Duffer / 罗斯·达菲 Ross Duffer / 肖恩·利维 Shawn Levy / 安德鲁·斯坦顿 Andrew Stanton / 丽贝卡·托马斯 Rebecca Thomas

◎主  演 薇诺娜·瑞德 Winona Ryder

      米莉·波比·布朗 Millie Bobby Brown

      大卫·哈伯 David Harbour

      娜塔莉·戴尔 Natalia Dyer

      诺亚·施纳普 Noah Schnapp

      伽塔·马塔拉佐 Gaten Matarazzo

      菲恩·伍法德 Finn Wolfhard

      查理·希顿 Charlie Heaton

      凯莱布·麦克劳克林 Caleb McLaughlin

      乔·基瑞 Joe Keery

      卡拉·布欧诺 Cara Buono

      西恩·奥斯汀 Sean Astin

      切尔西·塔尔玛琪 Chelsea Talmadge

      乔·克里斯特 Joe Chrest

      戴克·蒙哥马利 Dacre Montgomery

      萨迪·辛克 Sadie Sink


◎简  介


  第2季与第1季联系紧密,两者时间节点相隔差不多一年。第2季开场发生在一年后的万圣节,地点依然是印第安纳州的小镇霍金斯,这几个小家伙打扮成抓鬼敢死队。四个萌童中最醒目的肯定是威尔,第一季结尾时他咳嗽时吐出了一条虫子,这显然是为后续剧情埋下的伏笔。制作人之一的马特·杜菲表示:“他似乎能够看到表里世界(the Upside Down)的景象,问题在于这些景象到底是真的还是假的?看起来他正遭受着PTSD。”

  同时,过度担心乃至有点神经质的乔伊斯(薇诺娜·瑞德饰)则试图让两个儿子的生活稳定下来。她开始和前高中同学鲍勃(肖恩·奥斯汀饰)约会:“她试图遮掩很多东西,我认为她决定和鲍勃在一起,是想为孩子们的生活中带来一个好父亲。”

  霍珀警长(大卫·哈伯饰)则有一屁股的麻烦要处理,新一季中他要设法平息事态,保护乔伊斯和孩子们。哈伯表示:“所以霍珀的责任就是以官方的身份出面解释,到底什么事情发生了,什么事情没有发生。他不得不作出妥协,撒一些谎,遮掩一些事情,这令他很挣扎。”

  南希(娜塔莉亚·戴尔饰)和麦克这对姐弟的心境也有很大变化,两个各自在上一季失去了一位好友(巴伯和小十一),也为此黯然神伤。制作人罗斯·杜菲表示:“她和麦克是最伤心的人,因为他们都失去了朋友。他们都需要努力走出来,我们会在第2季中看到结果。”

  第2季最大的变化来自于新来的一对姐弟比利和麦克斯。麦克斯这个假小子迅速和几个男孩成为了玩伴,而且还成为了达斯汀和卢卡斯的梦中情人。比利则是个不太好相处的家伙。马特·杜菲暗示道:“史蒂芬·金非常善于刻画一些人类反派。真实社会中的恶魔丝毫不逊于那些超自然恶魔,我们希望引入这样一个角色。”

  之前外媒曾曝光过两个新角色的概述,与杜菲的描述正好吻合。之前的角色概述中来看,麦克斯是一个顽强自信的13岁假小子,无论外表、行为还是爱好都更像一个男孩,而不是女孩。她有一段复杂的身世背景,与自己的继兄关系不佳,这也使得她更谨慎保护自己的过去,也往往对周围的人持怀疑态度。她是一位滑板好手,喜欢滑着滑板走遍各地;比利是一个肌肉发达的17岁青年。他毛躁好斗,魅力超群,甚至有传闻称他曾在过去就读的学校里犯下凶案。比利喜欢撬走别人的女友,往往能在拼酒中胜出,还开着一辆帅气的黑色雪佛兰科迈罗。不过他周围的人,特别是那些比他年轻的人往往会观察到他的暴力倾向和变化无常、不可预测的本质。

  当然,《怪奇物语》依然是《怪奇物语》,还是会有很多超自然的问题。表里世界的裂缝依然存在,实验室现在换由看起来和善的欧文斯博士管理。杜菲兄弟对于新一季中的怪物闭口不谈,但他们透露这一季会展现“不同类型的恐惧”。此外,第2季中达斯汀会找到一个蝌蚪一样的宠物。饰演者盖登·玛塔拉佐表示:“这是一个和我有着紧密联系的小生物,它显然并不来自这个星球或这个位面。”


Video
ID : 1
Format : AVC
Format/Info : Advanced Video Codec
Format profile : High@L5.1
Format settings : CABAC / 6 Ref Frames
Format settings, CABAC : Yes
Format settings, ReFrames : 6 frames
Codec ID : V_MPEG4/ISO/AVC
Duration : 1 h 1 min
Bit rate : 40.9 Mb/s
Width : 3 840 pixels
Height : 1 920 pixels
Display aspect ratio : 2.000
Frame rate mode : Constant
Frame rate : 23.976 (24000/1001) FPS
Color space : YUV
Chroma subsampling : 4:2:0
Bit depth : 8 bits
Scan type : Progressive
Bits/(Pixel*Frame) : 0.232
Stream size : 17.7 GiB (99%)
Writing library : x264 core 152 r2851kMod ba24899
Encoding settings : cabac=1 / ref=6 / deblock=1:-3:-3 / analyse=0x3:0x133 / me=umh / subme=10 / psy=1 / fade_compensate=0.00 / psy_rd=1.00:0.00 / mixed_ref=1 / me_range=48 / chroma_me=1 / trellis=2 / 8x8dct=1 / cqm=0 / deadzone=21,11 / fast_pskip=0 / chroma_qp_offset=-2 / threads=48 / lookahead_threads=8 / sliced_threads=0 / nr=0 / decimate=0 / interlaced=0 / bluray_compat=0 / constrained_intra=0 / bframes=8 / b_pyramid=2 / b_adapt=2 / b_bias=0 / direct=3 / weightb=1 / open_gop=0 / weightp=2 / keyint=250 / keyint_min=23 / scenecut=40 / intra_refresh=0 / rc=crf / mbtree=0 / crf=19.0000 / qcomp=0.60 / qpmin=0 / qpmax=69 / qpstep=4 / ip_ratio=1.30 / pb_ratio=1.20 / aq=3:0.80
Language : English
Default : Yes
Forced : No

Audio
ID : 2
Format : AC-3
Format/Info : Audio Coding 3
Commercial name : Dolby Digital
Codec ID : A_AC3
Duration : 1 h 1 min
Bit rate mode : Constant
Bit rate : 384 kb/s
Channel(s) : 6 channels
Channel layout : L R C LFE Ls Rs
Sampling rate : 48.0 kHz
Frame rate : 31.250 FPS (1536 SPF)
Bit depth : 16 bits
Compression mode : Lossy
Stream size : 170 MiB (1%)
Language : English
Service kind : Complete Main
Default : Yes
Forced : No

Text #1
ID : 3
Format : UTF-8
Codec ID : S_TEXT/UTF8
Codec ID/Info : UTF-8 Plain Text
Duration : 58 min 37 s
Bit rate : 51 b/s
Count of elements : 769
Stream size : 22.3 KiB (0%)
Title : SDH
Language : English
Default : No
Forced : No

Text #2
ID : 4
Format : UTF-8
Codec ID : S_TEXT/UTF8
Codec ID/Info : UTF-8 Plain Text
Duration : 57 min 41 s
Bit rate : 45 b/s
Count of elements : 671
Stream size : 19.2 KiB (0%)
Language : English
Default : No
Forced : No

Text #3
ID : 5
Format : UTF-8
Codec ID : S_TEXT/UTF8
Codec ID/Info : UTF-8 Plain Text
Duration : 1 h 0 min
Bit rate : 34 b/s
Count of elements : 630
Stream size : 15.2 KiB (0%)
Language : German
Default : No
Forced : No

Text #4
ID : 6
Format : UTF-8
Codec ID : S_TEXT/UTF8
Codec ID/Info : UTF-8 Plain Text
Duration : 1 h 0 min
Bit rate : 35 b/s
Count of elements : 638
Stream size : 15.9 KiB (0%)
Language : Spanish
Default : No
Forced : No

Text #5
ID : 7
Format : UTF-8
Codec ID : S_TEXT/UTF8
Codec ID/Info : UTF-8 Plain Text
Duration : 1 h 0 min
Bit rate : 35 b/s
Count of elements : 622
Stream size : 15.7 KiB (0%)
Language : French
Default : No
Forced : No

Text #6
ID : 8
Format : UTF-8
Codec ID : S_TEXT/UTF8
Codec ID/Info : UTF-8 Plain Text
Duration : 1 h 0 min
Bit rate : 34 b/s
Count of elements : 623
Stream size : 15.3 KiB (0%)
Language : Italian
Default : No
Forced : No











附件下载:

/public/editor/file/20181107/20181107173743_51708.torrent

登陆后可以对信息进行评论。我想 注册 / 登陆

0.2628s