[美国] [悬疑] [打包] [BT下载][神探可伦坡/Columbo 第一季][全07集打包][英语无字][BD-MKV][720P/1080P][片源] -尽评网,尽评写真,电影下载,字幕下载,尽评天下,新闻热点,
尽评网酷评电影辣评剧集品评美食阔评胜景测评手机鉴评汽车尽评天下字幕下载 最新注册会员:neanderfal  登录 / 注册
[美国] [悬疑] [打包] [BT下载][神探可伦坡/Columbo 第一季][全07集打包][英语无字][BD-MKV][720P/1080P][片源]
全部共0条回复
雪刀浪子     [ 2018-11-07 18:57:29 ]
  昵称:雪刀浪子
等级:  尽评至尊
积分:87315
金币:8

◎译  名 神探可伦坡 第一季 / 刑事科伦坡 第一季 / 名侦探科伦坡 / 哥伦布督察 第一季 / 神探哥伦坡 第一季 / 神探科伦坡 第一季

◎片  名 Columbo Season 1

◎年  代 1971

◎产  地 美国

◎类  别 剧情 / 悬疑 / 惊悚 / 犯罪

◎语  言 英语

◎上映日期 1971-09-15(美国)

◎IMDb评分 8.2/10 from 22817 users

◎IMDb链接 http://www.imdb.com/title/tt1466074

◎豆瓣评分 8.8/10 from 392 users

◎豆瓣链接 https://movie.douban.com/subject/4000529/

◎BT之家整理 http://www.btbtt.us/

◎集  数 7

◎片  长 73分钟

◎导  演 伯纳德·L ·科瓦尔斯基 Bernard L. Kowalski / 海·艾弗巴克 Hy Averback / Edward M. Abroms / 彼得·法尔克 Peter Falk

◎编  剧 William Link / Richard Levinson / Steven Bochco / Jonathan Latimer

◎主  演 彼得·法尔克 Peter Falk

      Jack Cassidy

      埃迪·艾伯特 Eddie Albert

      罗伯特·考普 Robert Culp

      Ross Martin

      苏珊·克拉克 Susan Clark

      罗迪·麦克道尔 Roddy McDowall

      Patrick O'Neal




◎简  介  


  《神探可伦坡》《Columbo》是个著名美国经典电视电影系列,由彼得·福克(Peter Falk)主演。自1968年2月20日~2003年1月30日期间,包括2集试播片、本章以及之后陆续推出的特别篇,共69集。本片叙述一名总是穿着一件皱巴巴的棕色风衣,顶着一头乱发,嘴里叼雪茄,开着一辆老爷车的洛杉矶重案组的刑警主角可伦坡(Columbo) 。看似不修边幅的他,总是以敏锐的推理能力侦破各种案件,并让犯人无从抵赖。

本片每集独立成篇,一大特点是每集中客串演出犯人角色的全为名演员与名人。另一特点是剧情采用固定的倒叙推理形式:先描述犯人作案的情形,而后描写可伦坡从与嫌疑犯的交谈及证据中确定其嫌疑,逼得犯人不得不自白。犯人原以为天衣无缝的杀人计划,都逃不过他的锐眼。他的一句名言是:‘世上没有完美犯罪’。

本片特别之处就是使用较少见的倒叙推理形态,着重如何抓住犯人,而不是常见的查证谁是凶手,犯罪手法或动机。这种剧情铺陈手法,与三谷幸喜编剧的日剧《古畑任三郎》相似。


Video
ID : 1
Format : AVC
Format/Info : Advanced Video Codec
Format profile : High@L4.1
Format settings : CABAC / 5 Ref Frames
Format settings, CABAC : Yes
Format settings, ReFrames : 5 frames
Codec ID : V_MPEG4/ISO/AVC
Duration : 1 h 39 min
Bit rate : 9 548 kb/s
Width : 1 440 pixels
Height : 1 080 pixels
Display aspect ratio : 4:3
Frame rate mode : Constant
Frame rate : 23.976 (24000/1001) FPS
Color space : YUV
Chroma subsampling : 4:2:0
Bit depth : 8 bits
Scan type : Progressive
Bits/(Pixel*Frame) : 0.256
Stream size : 6.61 GiB (86%)
Writing library : x264 core 157 r2932 303c484
Encoding settings : cabac=1 / ref=5 / deblock=1:-3:-3 / analyse=0x3:0x133 / me=umh / subme=9 / psy=1 / psy_rd=1.00:0.00 / mixed_ref=1 / me_range=24 / chroma_me=1 / trellis=1 / 8x8dct=1 / cqm=0 / deadzone=21,11 / fast_pskip=0 / chroma_qp_offset=-2 / threads=24 / lookahead_threads=4 / sliced_threads=0 / nr=0 / decimate=1 / interlaced=0 / bluray_compat=0 / constrained_intra=0 / bframes=8 / b_pyramid=2 / b_adapt=2 / b_bias=0 / direct=3 / weightb=1 / open_gop=0 / weightp=2 / keyint=250 / keyint_min=23 / scenecut=40 / intra_refresh=0 / rc_lookahead=60 / rc=2pass / mbtree=1 / bitrate=9548 / ratetol=1.0 / qcomp=0.60 / qpmin=0 / qpmax=69 / qpstep=4 / cplxblur=20.0 / qblur=0.5 / vbv_maxrate=62500 / vbv_bufsize=78125 / nal_hrd=none / filler=0 / ip_ratio=1.40 / aq=1:1.00
Default : Yes
Forced : No

Audio
ID : 2
Format : DTS
Format/Info : Digital Theater Systems
Codec ID : A_DTS
Duration : 1 h 39 min
Bit rate mode : Constant
Bit rate : 1 509 kb/s
Channel(s) : 2 channels
Channel layout : L R
Sampling rate : 48.0 kHz
Frame rate : 93.750 FPS (512 SPF)
Bit depth : 24 bits
Compression mode : Lossy
Stream size : 1.04 GiB (14%)
Language : English
Default : Yes
Forced : No

Menu
00:00:00.000 : en:00:00:00.000
00:11:01.661 : en:00:11:01.661
00:26:47.314 : en:00:26:47.314
00:42:53.321 : en:00:42:53.321
00:51:37.928 : en:00:51:37.928
01:04:33.995 : en:01:04:33.995
01:16:21.368 : en:01:16:21.368
01:27:44.926 : en:01:27:44.926









附件下载:

/public/editor/file/20181107/20181107105720_21730.torrent

登陆后可以对信息进行评论。我想 注册 / 登陆

0.2418s