[美国] [剧情] [打包] [BT下载][继承/传承帝国/Succession 第一季][全10集打包][英语无字][BD-MKV][720P/][片源] -尽评网,尽评写真,电影下载,字幕下载,尽评天下,新闻热点,
尽评网酷评电影辣评剧集品评美食阔评胜景测评手机鉴评汽车尽评天下字幕下载 最新注册会员:neanderfal  登录 / 注册
[美国] [剧情] [打包] [BT下载][继承/传承帝国/Succession 第一季][全10集打包][英语无字][BD-MKV][720P/][片源]
全部共0条回复
雪刀浪子     [ 2018-11-05 02:19:07 ]
  昵称:雪刀浪子
等级:  尽评至尊
积分:87315
金币:8

◎译  名 继承/传承帝国

◎片  名 Succession

◎年  代 2018

◎产  地 美国

◎类  别 剧情

◎语  言 英语

◎上映日期 2018-06-03(美国)

◎IMDb评分  7.3/10 from 16 users

◎IMDb链接  http://www.imdb.com/title/tt7660850/

◎BT之家整理 http://www.btbtt.me 

◎集  数 10

◎导  演 马克·米罗 Mark Mylod / 亚当·阿金 Adam Arkin / 亚当·麦凯 Adam McKay / 安德里杰·帕瑞克 Andrij Parekh

◎主  演 西娅姆·阿巴斯 Hiam Abbass

      布莱恩·考克斯 Brian Cox

      基南·卡尔金 Kieran Culkin

      阿兰·卢克 Alan Ruck

      莎拉·斯努克 Sarah Snook

      杰瑞米·斯特朗 Jeremy Strong

      Kelly P. Williams

      尼可拉斯·博朗 Nicholas Braun

      达格玛拉·多敏齐克 Dagmara Dominczyk


◎简  介


  HBO剧《继承 Succession》由电影《大空头》编剧导演Adam McKay执导并监制﹑Jesse Armstrong(负责编剧)与Will Ferrell参与制作,现定于美国时间6月3日首播。该剧围绕国际媒体巨头Roy一家的家庭丑闻内幕,这虽是虚构的故事,不过主创表示剧集有影射媒体巨子Sumner Redstone。

  剧中Logan Roy及他的四个孩子控制着全球最大的媒乐媒体集团之一,年迈的父亲(Brian Cox饰)开始退出公司,而他的孩子则思索如何抓紧机会继承这帝国。其余演员包括Jeremy Strong﹑Hiam Abbass﹑Sarah Snook﹑Kieran Culkin﹑Alan Ruck﹑Nicholas Braun﹑Matthew Macfadyen﹑Natalie Gold﹑Peter Friedman及Rob Yang。


Video
ID : 1
Format : AVC
Format/Info : Advanced Video Codec
Format profile : High@L4.1
Format settings : CABAC / 5 Ref Frames
Format settings, CABAC : Yes
Format settings, ReFrames : 5 frames
Codec ID : V_MPEG4/ISO/AVC
Duration : 1 h 6 min
Bit rate : 4 188 kb/s
Width : 1 280 pixels
Height : 720 pixels
Display aspect ratio : 16:9
Frame rate mode : Constant
Frame rate : 23.976 (24000/1001) FPS
Color space : YUV
Chroma subsampling : 4:2:0
Bit depth : 8 bits
Scan type : Progressive
Bits/(Pixel*Frame) : 0.190
Stream size : 1.95 GiB (73%)
Writing library : x264 core 157 r2935 545de2f
Encoding settings : cabac=1 / ref=5 / deblock=1:-3:-3 / analyse=0x3:0x113 / me=umh / subme=8 / psy=1 / psy_rd=1.00:0.00 / mixed_ref=1 / me_range=24 / chroma_me=1 / trellis=1 / 8x8dct=1 / cqm=0 / deadzone=21,11 / fast_pskip=1 / chroma_qp_offset=-2 / threads=18 / lookahead_threads=3 / sliced_threads=0 / nr=0 / decimate=1 / interlaced=0 / bluray_compat=0 / constrained_intra=0 / bframes=3 / b_pyramid=2 / b_adapt=2 / b_bias=0 / direct=3 / weightb=1 / open_gop=0 / weightp=2 / keyint=240 / keyint_min=24 / scenecut=40 / intra_refresh=0 / rc_lookahead=50 / rc=2pass / mbtree=1 / bitrate=4188 / ratetol=1.0 / qcomp=0.60 / qpmin=0 / qpmax=69 / qpstep=4 / cplxblur=20.0 / qblur=0.5 / ip_ratio=1.40 / aq=3:0.80
Default : Yes
Forced : No

Audio
ID : 2
Format : DTS
Format/Info : Digital Theater Systems
Codec ID : A_DTS
Duration : 1 h 6 min
Bit rate mode : Constant
Bit rate : 1 509 kb/s
Channel(s) : 6 channels
Channel layout : C L R Ls Rs LFE
Sampling rate : 48.0 kHz
Frame rate : 93.750 FPS (512 SPF)
Bit depth : 24 bits
Compression mode : Lossy
Stream size : 717 MiB (26%)
Language : English
Default : Yes
Forced : No

Text #1
ID : 3
Format : UTF-8
Codec ID : S_TEXT/UTF8
Codec ID/Info : UTF-8 Plain Text
Duration : 1 h 4 min
Bit rate : 66 b/s
Count of elements : 968
Stream size : 31.3 KiB (0%)
Language : English
Default : No
Forced : No

Text #2
ID : 4
Format : UTF-8
Codec ID : S_TEXT/UTF8
Codec ID/Info : UTF-8 Plain Text
Duration : 1 h 5 min
Bit rate : 69 b/s
Count of elements : 1026
Stream size : 33.3 KiB (0%)
Title : SDH
Language : English
Default : No
Forced : No









附件下载:

/public/editor/file/20181104/20181104181902_70232.torrent

登陆后可以对信息进行评论。我想 注册 / 登陆

0.2443s