[美国] [惊悚] [打包] [BT下载][最后一刻 Eleventh Hour 第一季][全18集打包][英语无字][MKV][720P/1080P][片源] -尽评网,尽评写真,电影下载,字幕下载,尽评天下,新闻热点,
尽评网酷评电影辣评剧集品评美食阔评胜景测评手机鉴评汽车尽评天下字幕下载 最新注册会员:lllrrr  登录 / 注册
[美国] [惊悚] [打包] [BT下载][最后一刻 Eleventh Hour 第一季][全18集打包][英语无字][MKV][720P/1080P][片源]
全部共0条回复
雪刀浪子     [ 2018-11-04 00:27:21 ]
  昵称:雪刀浪子
等级:  尽评至尊
积分:87110
金币:8

◎译  名 最后一刻

◎片  名 Eleventh Hour

◎年  代 2008

◎产  地 美国

◎类  别 剧情 / 科幻 / 惊悚 / 恐怖

◎语  言 英语

◎上映日期 2008-10-09(美国)

◎IMDb评分 7.3/10 from 3748 users

◎IMDb链接 http://www.imdb.com/title/tt1118697

◎豆瓣评分 7.2/10 from 647 users

◎豆瓣链接 https://movie.douban.com/subject/3074043/

◎BT之家整理 http://www.btbtt.us/

◎集  数 18

◎导  演 Danny Cannon

◎编  剧 Mick Davis

◎主  演 Rufus Sewell

      Marley Shelton

      Marc Blucas




◎简  介  


  根据CBS的官方新闻稿,美国版《最后一刻》改编自英国版《最后一刻》,"是一部《X档案》+《难以忽视的真相》(An Inconvenient Truth)类型的科幻惊悚剧"。该剧首集投资大约400万美元,后续每集剧本授权费大约175万美元。据《综艺》杂志估计,该剧的总制作费用高达2500万~3000万美元。

The Eleventh Hour,字面上的意思是 "第十一个小时",但是在英语中却有另一层含义。在古代,犹太人通常将白昼分为12个小时。《圣经》中讲过这样一个故事:天国里有一个葡萄园,经常需要从外面雇用大量的工人来园里劳动,一天之内有三四批人在不同的时间进入园内,最后一批是11点进去的,但是所有雇工的工资要在一天劳动时一起支付。有一个家伙想到了一个偷懒的办法,他每天都和最后一批工人到园里劳动,但在领工资时,却和其他工人一样领取全天的工资。这个人的偷机取巧行为固然不可取,但从这个故事中,我们可以知道The Eleventh Hour的含义是 "最后一刻",很多场合下也可解释成 "危急之时"。


Video
ID : 1
Format : AVC
Format/Info : Advanced Video Codec
Format profile : High@L4
Format settings : CABAC / 4 Ref Frames
Format settings, CABAC : Yes
Format settings, ReFrames : 4 frames
Codec ID : V_MPEG4/ISO/AVC
Duration : 44 min 13 s
Bit rate : 5 182 kb/s
Width : 1 920 pixels
Height : 1 080 pixels
Display aspect ratio : 16:9
Frame rate mode : Constant
Frame rate : 23.976 FPS
Color space : YUV
Chroma subsampling : 4:2:0
Bit depth : 8 bits
Scan type : Progressive
Bits/(Pixel*Frame) : 0.104
Stream size : 1.60 GiB (91%)
Language : English
Default : Yes
Forced : No
Color range : Limited
Color primaries : BT.709
Transfer characteristics : BT.709
Matrix coefficients : BT.709

Audio
ID : 2
Format : AC-3
Format/Info : Audio Coding 3
Commercial name : Dolby Digital
Codec ID : A_AC3
Duration : 44 min 13 s
Bit rate mode : Constant
Bit rate : 384 kb/s
Channel(s) : 6 channels
Channel layout : L R C LFE Ls Rs
Sampling rate : 48.0 kHz
Frame rate : 31.250 FPS (1536 SPF)
Bit depth : 16 bits
Compression mode : Lossy
Stream size : 121 MiB (7%)
Language : English
Service kind : Complete Main
Default : Yes
Forced : No










附件下载:

/public/editor/file/20181103/20181103162711_32377.torrent

登陆后可以对信息进行评论。我想 注册 / 登陆

0.2625s